View Single Post
  #10  
Old 2013-11-15, 03:17
Zee's Avatar
Zee Zee is offline
<3 MP
 
Join Date: Jan 2012
Location: The Nasty Nati
Posts: 1,248
UPDATE:
ok so I got it working. I think. I didn't use the patch either. Just the gog.com files.

What I ended up doing is this:

The LBA2.DAT file from gog (the one that points to the .gog file that its the image of the game) has the following format:
FILE "LBA2.GOG" BINARY
TRACK 01 MODE1/2352
INDEX 01 00:00:00
FILE "LBA2.OGG" MP3
TRACK 02 AUDIO
INDEX 01 00:00:00

I changed it for the following text:

FILE "LBA2.GOG" BINARY
TRACK 01 MODE1/2352
INDEX 01 00:00:00
TRACK 02 AUDIO
PREGAP 00:02:00
INDEX 01 65:50:42

Now dosbox turbo mounts the .gog file without problem and the game works.

So I mount the game as follows:



Press enter and launch the game.



However, I haven't yet figured out any of the controls so I can't actually play it yet. I'm still working on this.
Reply With Quote